The Offspring- «Smash» (1994)

1 Звезда2 Звезды3 Звезды4 Звезды5 Звезд (37 оценок, среднее: 3,19 из 5)
Загрузка...

  • Год: 1994
  • Аудио кодек: FLAC (*.flac)
  • Рип: .flac+.cue
  • Длительность: 0:46:45
  • Качество: 44.100 kHz; 16 bit; 891 kbps; стерео


Описание

«Smash» — третий альбом американской панк-рок-группы The Offspring, релиз которого состоялся 8 апреля 1994 года. Альбом, наряду с Americana, стал одним из самых успешных в дискографии группы, разойдясь к 2008 году тиражом 11 миллионов экземпляров. Он также признан самым успешным альбомом из всех, выходивших когда-либо на независимом лейбле. Успех альбому обеспечили такие синглы как «Come Out and Play», «Self Esteem», «Gotta Get Away» и «Bad Habit», ставшие хитами.


Треклист

  1. «Time to Relax» — 0:25
  2. «Nitro (Youth Energy)» — 2:27
  3. «Bad Habit» — 3:43
  4. «Gotta Get Away» — 3:52
  5. «Genocide» — 3:33
  6. «Something to Believe In» — 3:17
  7. «Come Out and Play (Keep ‘Em Separated)» — 3:17
  8. «Self Esteem» — 4:17
  9. «It’ll Be a Long Time» — 2:43
  10. «Killboy Powerhead» (песня The Didjits) — 2:02
  11. «What Happened to You?» — 2:12
  12. «So Alone» — 1:17
  13. «Not the One» — 2:54
  14. «Smash» — 10:42

 

Отчёт об извлечении

EAC extraction logfile from 27. March 2008, 3:20

The Offspring / Smash

Used drive : SlimtypeDVD A DS8A1H Adapter: 6 ID: 0

Read mode : Secure Utilize accurate stream : Yes Defeat audio cache : Yes Make use of C2 pointers : No

Read offset correction : 594 Overread into Lead-In and Lead-Out : Yes Fill up missing offset samples with silence : Yes Delete leading and trailing silent blocks : No Null samples used in CRC calculations : Yes Used interface : Native Win32 interface for Win NT & 2000 Gap handling : Appended to previous track

Used output format : Internal WAV Routines Sample format : 44.100 Hz; 16 Bit; Stereo

TOC of the extracted CD

Track | Start | Length | Start sector | End sector ——————————————————— 1 | 0:00.00 | 0:25.35 | 0 | 1909 2 | 0:25.35 | 2:26.72 | 1910 | 12931 3 | 2:52.32 | 3:43.68 | 12932 | 29724 4 | 6:36.25 | 3:52.12 | 29725 | 47136 5 | 10:28.37 | 3:33.08 | 47137 | 63119 6 | 14:01.45 | 3:17.45 | 63120 | 77939 7 | 17:19.15 | 3:17.60 | 77940 | 92774 8 | 20:37.00 | 4:17.62 | 92775 | 112111 9 | 24:54.62 | 2:43.20 | 112112 | 124356 10 | 27:38.07 | 2:02.53 | 124357 | 133559 11 | 29:40.60 | 2:12.10 | 133560 | 143469 12 | 31:52.70 | 1:17.20 | 143470 | 149264 13 | 33:10.15 | 2:54.27 | 149265 | 162341 14 | 36:04.42 | 10:40.15 | 162342 | 210356

Track 1

Filename C:\FTP\01 Time To Relax.wav

Pre-gap length 0:00:02.00

Peak level 69.6 % Track quality 100.0 % Test CRC AE8EE416 Copy CRC AE8EE416 Copy OK

Track 2

Filename C:\FTP\02 Nitro [ Youth Energy ].wav

Pre-gap length 0:00:00.22

Peak level 94.6 % Track quality 100.0 % Test CRC 919BE275 Copy CRC 919BE275 Copy OK

Track 3

Filename C:\FTP\03 Bad Habit.wav

Pre-gap length 0:00:00.02

Peak level 94.6 % Track quality 100.0 % Test CRC 10F8075C Copy CRC 10F8075C Copy OK

Track 4

Filename C:\FTP\04 Gotta Get Away.wav

Pre-gap length 0:00:00.22

Peak level 94.6 % Track quality 100.0 % Test CRC 3047DF32 Copy CRC 3047DF32 Copy OK

Track 5

Filename C:\FTP\05 Genocide.wav

Peak level 94.6 % Track quality 100.0 % Test CRC F3D4EBD5 Copy CRC F3D4EBD5 Copy OK

Track 6

Filename C:\FTP\06 Something To Believe In.wav

Pre-gap length 0:00:00.01

Peak level 94.6 % Track quality 99.9 % Test CRC 70920E48 Copy CRC 70920E48 Copy OK

Track 7

Filename C:\FTP\07 Come Out And Play.wav

Pre-gap length 0:00:00.03

Peak level 94.6 % Track quality 100.0 % Test CRC 4E26EB81 Copy CRC 4E26EB81 Copy OK

Track 8

Filename C:\FTP\08 Self Esteem.wav

Pre-gap length 0:00:00.03

Peak level 94.6 % Track quality 100.0 % Test CRC 883E9FD8 Copy CRC 883E9FD8 Copy OK

Track 9

Filename C:\FTP\09 It’ll Be A Long Time.wav

Pre-gap length 0:00:00.02

Peak level 94.6 % Track quality 100.0 % Test CRC 9AFA3B80 Copy CRC 9AFA3B80 Copy OK

Track 10

Filename C:\FTP\10 Killboy Powerhead.wav

Pre-gap length 0:00:00.23

Peak level 94.6 % Track quality 100.0 % Test CRC DA63FC8B Copy CRC DA63FC8B Copy OK

Track 11

Filename C:\FTP\11 What Happened To You .wav

Pre-gap length 0:00:00.02

Peak level 94.5 % Track quality 100.0 % Test CRC C02B4476 Copy CRC C02B4476 Copy OK

Track 12

Filename C:\FTP\12 So Alone.wav

Pre-gap length 0:00:00.04

Peak level 94.6 % Track quality 100.0 % Test CRC 602E3E59 Copy CRC 602E3E59 Copy OK

Track 13

Filename C:\FTP\13 Not The One.wav

Pre-gap length 0:00:00.16

Peak level 94.6 % Track quality 99.9 % Test CRC 0DB0D94D Copy CRC 0DB0D94D Copy OK

Track 14

Filename C:\FTP\14 Smash.wav

Pre-gap length 0:00:00.02

Peak level 94.6 % Track quality 100.0 % Test CRC A5EC4826 Copy CRC A5EC4826 Copy OK

No errors occurred

Checking AccurateRip database

Track Ripping Status [Disc ID: 0014c46a-be0af40e]

1 Accurately Ripped (confidence 9) [5eb0a9f6] 2 Accurately Ripped (confidence 9) [0f18a7b7] 3 Accurately Ripped (confidence 8) [1f4f2964] 4 Accurately Ripped (confidence 10) [273b23f2] 5 Accurately Ripped (confidence 9) [ec553e0b] 6 Accurately Ripped (confidence 9) [a04a701f] 7 Accurately Ripped (confidence 9) [b385de07] 8 Accurately Ripped (confidence 9) [2756d667] 9 Accurately Ripped (confidence 10) [76a62bb7] 10 Accurately Ripped (confidence 10) [d1606d63] 11 Accurately Ripped (confidence 10) [52f80b65] 12 Accurately Ripped (confidence 10) [48802570] 13 Accurately Ripped (confidence 10) [c049e662] 14 Accurately Ripped (confidence 10) [172ba45c]

_______________________

All Tracks Accurately Ripped.

End of status report

 

[свернуть]

Пароль на архив: Rock Library

Вы можете оставить комментарий, или ссылку на Ваш сайт.

Оставить комментарий

Вы должны быть авторизованы, чтобы разместить комментарий.