Nokturnal Mortum- «Weltanschauung» (2005)

1 Звезда2 Звезды3 Звезды4 Звезды5 Звезд (3 оценок, среднее: 4,00 из 5)
Загрузка...

  • Год: 2005
  • Аудио кодек: FLAC (*.flac)
  • Рип: .flac+.cue
  • Длительность: 1:14:56
  • Качество: 44.100 kHz; 16 bit; 981 kbps; стерео


Описание

 

«Weltanschauung» — This is a digipak double CD release which contains two different versions of Ukranian symphonic black/folk metal act Nokturnal Mortum’s 2005 album Weltanschauung.


Треклист

  1. The Path of Immortals (02:26)
  2. I Feel the Breath of Ragnarok (08:06)
  3. Stardust (02:27)
  4. Weltanschauung (08:32)
  5. Sorrow of Native Lands (03:21)
  6. Hailed Be the Heroes (08:15)
  7. The Dance of Fire and Steel (01:47)
  8. The New Era of Swords (07:40)
  9. Endless Vast Swamps (01:29)
  10. The Knots upon the Thread of Fate (10:39)
  11. Harvesting the Seeds of Death (01:52)
  12. The Taste of Victory (12:24)
  13. The Way of Glory (02:51)
  14. Untitled track (03:01)

 

Отчёт об извлечении

EAC extraction logfile from 11. March 2010, 8:00

Nokturnal Mortum / Weltanschauung

Used drive : HL-DT-STDVD-RAM GH22NP20 Adapter: 0 ID: 0

Read mode : Secure Utilize accurate stream : Yes Defeat audio cache : Yes Make use of C2 pointers : No

Read offset correction : 102 Overread into Lead-In and Lead-Out : No Fill up missing offset samples with silence : Yes Delete leading and trailing silent blocks : No Null samples used in CRC calculations : Yes Used interface : Native Win32 interface for Win NT & 2000

Used output format : User Defined Encoder Selected bitrate : 128 kBit/s Quality : High Add ID3 tag : No Command line compressor : C:\Program Files (x86)\FLAC\flac.exe Additional command line options : ?8 ?V ?T «ARTIST=%a» ?T «TITLE=%t» ?T «ALBUM=%g» ?T «DATE=%y» ?T «TRACKNUMBER=%n» ?T «GENRE=%m» ?T «COMMENT=EAC FLAC ?8» %s

TOC of the extracted CD

Track | Start | Length | Start sector | End sector ——————————————————— 1 | 0:00.00 | 2:26.24 | 0 | 10973 2 | 2:26.24 | 8:06.27 | 10974 | 47450 3 | 10:32.51 | 2:27.27 | 47451 | 58502 4 | 13:00.03 | 8:32.58 | 58503 | 96960 5 | 21:32.61 | 3:21.66 | 96961 | 112101 6 | 24:54.52 | 8:15.21 | 112102 | 149247 7 | 33:09.73 | 1:47.28 | 149248 | 157300 8 | 34:57.26 | 7:40.46 | 157301 | 191846 9 | 42:37.72 | 1:29.43 | 191847 | 198564 10 | 44:07.40 | 10:39.44 | 198565 | 246533 11 | 54:47.09 | 1:51.74 | 246534 | 254932 12 | 56:39.08 | 12:24.36 | 254933 | 310768 13 | 69:03.44 | 2:51.11 | 310769 | 323604 14 | 71:54.55 | 3:00.62 | 323605 | 337166

Range status and errors

Selected range

Filename C:\Users\vvb05\Desktop\јудио\Nokturnal Mortum — Weltanschauung.wav

Peak level 100.0 % Range quality 100.0 % Test CRC 9EB62358 Copy CRC 9EB62358 Copy OK

No errors occurred

AccurateRip summary

Track 1 accurately ripped (confidence 3) [4EA95C2F] Track 2 accurately ripped (confidence 3) [7387A913] Track 3 accurately ripped (confidence 3) [74FD0455] Track 4 accurately ripped (confidence 3) [B0C61874] Track 5 accurately ripped (confidence 3) [C78930EA] Track 6 accurately ripped (confidence 3) [3B4FDF50] Track 7 accurately ripped (confidence 3) [77C4345C] Track 8 accurately ripped (confidence 3) [A44F644F] Track 9 accurately ripped (confidence 3) [46CBA296] Track 10 accurately ripped (confidence 3) [97A6CBA5] Track 11 accurately ripped (confidence 3) [153A9FF2] Track 12 accurately ripped (confidence 3) [A754F125] Track 13 accurately ripped (confidence 3) [D73C14A9] Track 14 accurately ripped (confidence 3) [1D651AAF]

All tracks accurately ripped

End of status report

 

[свернуть]

Пароль на архив: Rock Library

Комментирование и размещение ссылок запрещено.

Комментарии закрыты.