Mare Infinitum- «Sea Of Infinity» (2011)

1 Звезда2 Звезды3 Звезды4 Звезды5 Звезд (16 оценок, среднее: 3,88 из 5)
Загрузка...

  • Год: 2011
  • Аудио кодек: FLAC (*.flac)
  • Рип: .flac+.cue
  • Длительность: 0:54:47
  • Качество: 44.100 kHz; 16 bit; 932 kbps; стерео


Описание

«Sea Of Infinity» — Дебютный альбом московской группы, представляющей двух знаменитых музыкантов в составе: A.K. iEezor (коматозное бдение, абстрактный дух) и Гомер (бывший умерший в сибирской слякоти). «Sea Of Infinity» состоит из пяти треков дэт-метала, включая один инструментальный. Мелодичные композиции обрамлены атмосферными клавишными и мощными гитарными риффами в сопровождении выразительного рычания А.К. iEezor и чистый вокал приглашенных певцов. «Sea Of Infinity» — это не просто еще один альбом, представляющий новые черты стиля, а входной билет для группы на самый высокий уровень российской дум-дэт-металлической сцены! Альбом был записан в Primordial Studio (известной благодаря работе с коматозным бдением, «Откровения дождя», «Абстрактный дух», «Кто умирает в сибирской слякоти»). Альбом настоятельно рекомендуется любителям музыки в традициях Mourning Beloveth и Morgion!


Треклист

  1. In Absence We Dwell (14:10)
    2. Sea Of Infinity (09:47)
    3. Beholding the Unseen (09:44)
    4. November Euphoria (08:35)
    5. In The Name Of My Sin (12:29)

 

 

Отчёт об извлечении

Отчёт EAC об извлечении, выполненном 24. апреля 2015, 11:40

Mare Infinitum / Sea Of Infinity

Дисковод: Optiarc DVD RW AD-7283S Adapter: 1 ID: 1

Режим чтения : Достоверность Использование точного потока : Да Отключение кэша аудио : Да Использование указателей C2 : Нет

Коррекция смещения при чтении : 48 Способность читать области Lead-in и Lead-out : Нет Заполнение пропущенных сэмплов тишиной : Да Удаление блоков с тишиной в начале и конце : Нет При вычислениях CRC использовались нулевые сэмплы : Да Интерфейс : Встроенный Win32-интерфейс для Win NT/2000

Выходной формат : Пользовательский кодировщик Выбранный битрейт : 1024 kBit/s Качество : Высокий Добавление ID3-тега : Нет Утилита сжатия : C:\Program Files (x86)\Exact Audio Copy\Flac\flac.exe Дополнительные параметры : -V -8 -T «Date=%year%» -T «Genre=%genre%» %source%

TOC извлечённого CD

Трек | Старт | Длительность | Начальный сектор | Конечный сектор ——————————————————————— 1 | 0:00.00 | 14:10.00 | 0 | 63749 2 | 14:10.00 | 9:47.27 | 63750 | 107801 3 | 23:57.27 | 9:44.23 | 107802 | 151624 4 | 33:41.50 | 8:35.72 | 151625 | 190321 5 | 42:17.47 | 12:29.63 | 190322 | 246559

Характеристики диапазона извлечения и сообщения об ошибках

Выбранный диапазон

Имя файла D:\Yourson\-Morgul-\Mare Infinitum\2011 — Sea Of Infinity\Mare Infinitum — Sea Of Infinity.wav

Пиковый уровень 100.0 % Скорость извлечения 4.1 X Качество диапазона 99.9 % CRC теста BAE8330A CRC копии BAE8330A Копирование… OK

Ошибок не произошло

AccurateRip: сводка Трек 1 : извлечено точно (доверие 7) [48913E12] (AR v2) Трек 2 : извлечено точно (доверие 7) [AF70A1E5] (AR v2) Трек 3 : извлечено точно (доверие 7) [3A1C25E0] (AR v2) Трек 4 : извлечено точно (доверие 7) [CAA3037F] (AR v2) Трек 5 : извлечено точно (доверие 7) [B11D5665] (AR v2) Все треки извлечены точно

Конец отчёта

==== Контрольная сумма отчёта 1A4543AB62C7AB94C1FAA0C3004EBFD22C9A7070D7DAE8DE429E9A80F93328CE ====

 

[свернуть]

Пароль на архив: Rock Library

Вы можете пропустить чтение записи и оставить комментарий. Размещение ссылок запрещено.

Оставить комментарий

Вы должны быть авторизованы, чтобы разместить комментарий.