Inside You- «Night Hunt» (2007)

1 Звезда2 Звезды3 Звезды4 Звезды5 Звезд (144 оценок, среднее: 3,35 из 5)
Загрузка...

  • Год: 2007
  • Аудио кодек: FLAC (*.flac)
  • Рип: .flac+.cue + video
  • Длительность: 0:41:23
  • Качество: 44 kHz; 16 bit; 1041 kbps; стерео


Описание

15 октября 2007 на лейбле «CD-MAXIMUM» вышел второй полнометражный альбом известной истринской Doom / Death Metal группы Inside You под названием «Night Hunt», выдержанный в лучших европейских традициях . Он обязательно найдет отклик во многих сердцах поклонников тяжелого и мелодичного Doom / Death Metal с особой готической атмосферой. Сведение альбома было выполнено на зеленоградской студии Аркадия Навахо, а мастеринг записи прошел на всемирно известной студии Finnvox под управлением Mika Jussila.


Треклист

  1. Intro: Night forest 1:02
  2. Night hunt 5:34
  3. A scream of the broken dream 5:15
  4. Wonderful drink 4:28
  5. Wings of an angel 4:14
  6. Innocent girl like a pretty doll 3:28
  7. On a flying road 3:19
  8. A sip of freedom 5:01
  9. Under a lucky star 4:34
  10. The grievous one 4:25

Отчёт об извлечении

Отчёт EAC об извлечении, выполненном 6. марта 2011, 10:19

Inside You / Night Hunt

Дисковод: TEAC DV-W522GMA Adapter: 0 ID: 0

Режим чтения : Достоверность Использование точного потока : Да Отключение кэша аудио : Да Использование указателей C2 : Нет

Коррекция смещения при чтении : 6 Способность читать области Lead-in и Lead-out : Нет Заполнение пропущенных сэмплов тишиной : Да Удаление блоков с тишиной в начале и конце : Нет При вычислениях CRC использовались нулевые сэмплы : Да Интерфейс : Встроенный Win32-интерфейс для Win NT/2000

Выходной формат : Пользовательский кодировщик Выбранный битрейт : 32 kBit/s Качество : Высокий Добавление ID3-тэга : Нет Утилита сжатия : C:\Program Files\Exact Audio Copy\Flac\flac.exe Дополнительные параметры : -6 -V %s

TOC извлечённого CD

Трек | Старт | Длительность | Начальный сектор | Конечный сектор ——————————————————————— 1 | 0:00.00 | 1:02.44 | 0 | 4693 2 | 1:02.44 | 5:33.73 | 4694 | 29741 3 | 6:36.42 | 5:15.18 | 29742 | 53384 4 | 11:51.60 | 4:28.33 | 53385 | 73517 5 | 16:20.18 | 4:14.66 | 73518 | 92633 6 | 20:35.09 | 3:28.56 | 92634 | 108289 7 | 24:03.65 | 3:19.02 | 108290 | 123216 8 | 27:22.67 | 5:01.18 | 123217 | 145809 9 | 32:24.10 | 4:34.11 | 145810 | 166370 10 | 36:58.21 | 4:25.10 | 166371 | 186255 11 | 43:55.31 | 11:47.10 | 197656 | 250690

Характеристики диапазона извлечения и сообщения об ошибках

Выбранный диапазон

Имя файла D:\Sautumnblaze\Inside You — Night Hunt.wav

Пиковый уровень 97.7 % Качество диапазона 100.0 % CRC теста 4F15046B CRC копии 4F15046B Копирование… OK

Ошибок не произошло

AccurateRip: сводка Трек 1 точное извлечение (доверие 1) [11F59B07] Трек 2 точное извлечение (доверие 1) [D84FED37] Трек 3 точное извлечение (доверие 1) [B9E4BC87] Трек 4 точное извлечение (доверие 1) [1773D381] Трек 5 точное извлечение (доверие 1) [2C5CA0D8] Трек 6 точное извлечение (доверие 1) [F2E04E53] Трек 7 точное извлечение (доверие 1) [95EDCAAC] Трек 8 точное извлечение (доверие 1) [42FCE6D2] Трек 9 точное извлечение (доверие 1) [31C17B58] Трек 10 точное извлечение (доверие 1) [B3B42EEE] Все треки извлечены точно

Конец отчёта

[свернуть]

Пароль на архив: Rock Library

 


Вы можете оставить комментарий, или ссылку на Ваш сайт.

Оставить комментарий

Вы должны быть авторизованы, чтобы разместить комментарий.