Haggard- «And Thou Shalt Trust… The Seer» (1997)

1 Звезда2 Звезды3 Звезды4 Звезды5 Звезд (2 оценок, среднее: 5,00 из 5)
Загрузка...

  • Год: 1997
  • Аудио кодек: FLAC (*.flac)
  • Рип: .flac+.cue
  • Длительность: 0:41:29
  • Качество: 44 kHz; 16 bit; 875 kbps; стерео


Описание

 

«And Thou Shalt Trust… the Seer» — дебютный студийный альбом немецкой симфоник-метал-группы Haggard. Выпущен 15 октября 1997 года лейблом Serenades Records. Тексты музыкальных композиций посвящены религиозной и мистической тематике. С этого альбома Haggard начинают посвящать песни известным деятелям эпохи Возрождения.


Треклист

  1. Chapter I:The Day As Heaven Wept (5:46)
  2. Chapter II: Origin Of A Crystal Soul (5:55)
  3. Requiem In D-Minor (2:08)
  4. Chapter III: In A Pale Moon’s Shadow (9:38)
  5. Cantus Firmus In A-Minor (2:32)
  6. Chapter IV: De La Morte Noire (8:02)
  7. Chapter V: Lost (Robin’s Song) (4:25)
  8. Outro: A Midnight Gathering (3:00)

 

Отчёт об извлечении

Exact Audio Copy V0.99 prebeta 4 from 23. January 2008

EAC extraction logfile from 19. July 2009, 20:08

Haggard / And Thou Shalt Trust… The Seer

Used drive : Optiarc DVD RW AD-7201S Adapter: 3 ID: 0

Read mode : Secure Utilize accurate stream : Yes Defeat audio cache : Yes Make use of C2 pointers : No

Read offset correction : 48 Overread into Lead-In and Lead-Out : No Fill up missing offset samples with silence : Yes Delete leading and trailing silent blocks : No Null samples used in CRC calculations : Yes Used interface : Native Win32 interface for Win NT & 2000 Gap handling : Appended to previous track

Used output format : User Defined Encoder Selected bitrate : 320 kBit/s Quality : High Add ID3 tag : No Command line compressor : C:\Program Files\Exact Audio Copy\Flac\flac.exe Additional command line options : -V -8 -T «artist=%a» -T «title=%t» -T «album=%g» -T «date=%y» -T «tracknumber=%n» -T «genre=%m» %s

TOC of the extracted CD

Track | Start | Length | Start sector | End sector ——————————————————— 1 | 0:00.25 | 5:46.49 | 25 | 26023 2 | 5:46.74 | 5:55.30 | 26024 | 52678 3 | 11:42.29 | 2:08.66 | 52679 | 62344 4 | 13:51.20 | 9:38.17 | 62345 | 105711 5 | 23:29.37 | 2:32.10 | 105712 | 117121 6 | 26:01.47 | 8:02.43 | 117122 | 153314 7 | 34:04.15 | 4:25.28 | 153315 | 173217 8 | 38:29.43 | 2:59.39 | 173218 | 186681

Track 1

Filename F:\What.cd Uploads\Haggard — And Thou Shalt Trust… The Seer\01. Haggard — Chapter I , The Day As Heaven Wept.wav

Pre-gap length 0:00:02.33

Peak level 88.2 % Track quality 99.9 % Test CRC E802012B Copy CRC E802012B Accurately ripped (confidence 9) [7F93878D] Copy OK

Track 2

Filename F:\What.cd Uploads\Haggard — And Thou Shalt Trust… The Seer\02. Haggard — Chapter II , Origin Of A Crystal Soul.wav

Peak level 90.0 % Track quality 100.0 % Test CRC 4EBECD71 Copy CRC 4EBECD71 Accurately ripped (confidence 9) [19CACC76] Copy OK

Track 3

Filename F:\What.cd Uploads\Haggard — And Thou Shalt Trust… The Seer\03. Haggard — Chapter II , Requiem In D-Minor.wav

Peak level 53.7 % Track quality 100.0 % Test CRC AB91F72D Copy CRC AB91F72D Accurately ripped (confidence 9) [396A8AD7] Copy OK

Track 4

Filename F:\What.cd Uploads\Haggard — And Thou Shalt Trust… The Seer\04. Haggard — Chapter III , In A Pale Moon’s Shadow.wav

Peak level 90.1 % Track quality 100.0 % Test CRC 4FA3BAD6 Copy CRC 4FA3BAD6 Accurately ripped (confidence 9) [A7DB56F2] Copy OK

Track 5

Filename F:\What.cd Uploads\Haggard — And Thou Shalt Trust… The Seer\05. Haggard — Chapter III , Cantus Firmus In A-Minor.wav

Peak level 85.7 % Track quality 100.0 % Test CRC 86B46433 Copy CRC 86B46433 Accurately ripped (confidence 9) [DD51D624] Copy OK

Track 6

Filename F:\What.cd Uploads\Haggard — And Thou Shalt Trust… The Seer\06. Haggard — Chapter IV , De La Morte Noire.wav

Peak level 93.7 % Track quality 100.0 % Test CRC EEA264EC Copy CRC EEA264EC Accurately ripped (confidence 9) [0D954029] Copy OK

Track 7

Filename F:\What.cd Uploads\Haggard — And Thou Shalt Trust… The Seer\07. Haggard — Chapter V , Lost (Robin’s Song).wav

Peak level 71.6 % Track quality 100.0 % Test CRC DFD73C2D Copy CRC DFD73C2D Accurately ripped (confidence 9) [601D788A] Copy OK

Track 8

Filename F:\What.cd Uploads\Haggard — And Thou Shalt Trust… The Seer\08. Haggard — Outro , A Midnight Gathering.wav

Peak level 92.3 % Track quality 100.0 % Test CRC C4AEE21D Copy CRC C4AEE21D Accurately ripped (confidence 8) [560C9E83] Copy OK

All tracks accurately ripped

No errors occurred

End of status report

 

[свернуть]

Пароль на архив: Rock Library

Комментирование и размещение ссылок запрещено.

Комментарии закрыты.