Grave Digger- «Heavy Metal Breakdown + Rare Tracks [VICP-8129]» (1984)

1 Звезда2 Звезды3 Звезды4 Звезды5 Звезд (22 оценок, среднее: 2,73 из 5)
Загрузка...

  • Год: 1984
  • Аудио кодек: FLAC (*.flac)
  • Рип: .flac+.cue
  • Длительность: 01:17:48
  • Качество: 44.100 Hz; 16 bit; 989 kbps; стерео


Описание

«Heavy Metal Breakdown» — первый студийный альбом метал-группы Grave Digger. + дополнительные треки.


Треклист

  1. Headbanging Man (03:37)
  2. Heavy Metal Breakdown (03:42)
  3. Back From The War (05:36)
  4. Yesterday (05:06)
  5. We Wanna Rock You (04:18)
  6. Legion Of The Lost (04:54)
  7. Tyrant (03:18)
  8. 2000 Lightyears From Home (02:54)
  9. Heart Attack (03:17)
  10. Violence (04:45)
  11. Shoot Her Down (03:41)
  12. We Wanna Rock You (03:39)
  13. Storming The Brain (05:08)
  14. Shine On (05:16)
  15. Tears Of Blood (02:39)
  16. Don’t Kill The Children (03:19)
  17. Girls Of Rock And Roll (03:43)
  18. Stronger Than Ever (04:34)
  19. I Don’t Need Your Love (04:22)

Отчёт об извлечении

Exact Audio Copy V0.99 prebeta 5 from 4. May 2009

Отчёт EAC об извлечении, выполненном 9. июня 2010, 6:25

Grave Digger / Heavy Metal Breakdown + Rare Tracks [VICP-8129]

Дисковод: MATSHITADVD-RAM UJ-850S Adapter: 0 ID: 0

Режим чтения : Достоверность Использование точного потока : Да Отключение кэша аудио : Да Использование указателей C2 : Нет

Коррекция смещения при чтении : 102 Способность читать области Lead-in и Lead-out : Нет Заполнение пропущенных сэмплов тишиной : Да Удаление блоков с тишиной в начале и конце : Нет При вычислениях CRC использовались нулевые сэмплы : Да Интерфейс : Установленный внешний ASPI-интерфейс

Выходной формат : Пользовательский кодировщик Выбранный битрейт : 128 kBit/s Качество : Высокий Добавление ID3-тэга : Нет Утилита сжатия : C:\Program Files\Exact Audio Copy\Flac\flac.exe Дополнительные параметры : -6 -V -T «artist=%a» -T «title=%t» -T «album=%g» -T «date=%y» -T «tracknumber=%n» -T «genre=%m» -T «comment=EAC 0.99beta5 / FLAC 1.1.0 q6» %s

TOC извлечённого CD

Трек | Старт | Длительность | Начальный сектор | Конечный сектор ——————————————————————— 1 | 0:00.37 | 3:37.05 | 37 | 16316 2 | 3:37.42 | 3:42.10 | 16317 | 32976 3 | 7:19.52 | 5:35.45 | 32977 | 58146 4 | 12:55.22 | 5:06.15 | 58147 | 81111 5 | 18:01.37 | 4:17.53 | 81112 | 100439 6 | 22:19.15 | 4:54.07 | 100440 | 122496 7 | 27:13.22 | 3:17.40 | 122497 | 137311 8 | 30:30.62 | 2:54.28 | 137312 | 150389 9 | 33:25.15 | 3:17.25 | 150390 | 165189 10 | 36:42.40 | 4:45.22 | 165190 | 186586 11 | 41:27.62 | 3:40.73 | 186587 | 203159 12 | 45:08.60 | 3:39.10 | 203160 | 219594 13 | 48:47.70 | 5:08.05 | 219595 | 242699 14 | 53:56.00 | 5:16.35 | 242700 | 266434 15 | 59:12.35 | 2:38.40 | 266435 | 278324 16 | 61:51.00 | 3:18.72 | 278325 | 293246 17 | 65:09.72 | 3:43.08 | 293247 | 309979 18 | 68:53.05 | 4:33.42 | 309980 | 330496 19 | 73:26.47 | 4:21.58 | 330497 | 350129

Характеристики диапазона извлечения и сообщения об ошибках

Выбранный диапазон

Имя файла Y:\Музыка\Grave Digger\1984 Heavy Metal Breakdown + Rare Tracks\Grave Digger — Heavy Metal Breakdown + Rare Tracks [VICP-8129].wav

Пиковый уровень 98.2 % Качество диапазона 100.0 % CRC копии 6FB799F4 Копирование… OK

Ошибок не произошло

AccurateRip: сводка Трек 1 нет в базе данных Трек 2 нет в базе данных Трек 3 нет в базе данных Трек 4 нет в базе данных Трек 5 нет в базе данных Трек 6 нет в базе данных Трек 7 нет в базе данных Трек 8 нет в базе данных Трек 9 нет в базе данных Трек 10 нет в базе данных Трек 11 нет в базе данных Трек 12 нет в базе данных Трек 13 нет в базе данных Трек 14 нет в базе данных Трек 15 нет в базе данных Трек 16 нет в базе данных Трек 17 нет в базе данных Трек 18 нет в базе данных Трек 19 нет в базе данных Ни одного трека нет в базе AccurateRip

Конец отчёта

[свернуть]

Пароль на архив: Rock Library

Комментирование и размещение ссылок запрещено.

Комментарии закрыты.