Children of Bodom- «Something Wild» (1997)

1 Звезда2 Звезды3 Звезды4 Звезды5 Звезд (5 оценок, среднее: 3,00 из 5)
Загрузка...

  • Год: 1997
  • Аудио кодек: Monkey’s Audio (*.ape)
  • Рип: .ape+.cue
  • Длительность: 0:35:58
  • Качество: 44.100 Hz; 16 bit; 1000 kbps; стерео


Описание

Something Wild (с англ. — «Нечто дикое») — дебютный альбом финской мелодик-дэт-метал-группы Children of Bodom, вышедший в 1997 году.


Треклист

  1. Deadnight Warrior (3:22)
  2. In The Shadows (6:01)
  3. Red Light In My Eyes, Pt. 1 (4:28)
  4. Red Light In My Eyes, Pt. 2 (3:50)
  5. Lake Bodom (4:02)
  6. The Nail (6:18)
  7. Touch Like Angel Of Death (7:47)
  8. Bruno The Pig (0:10)

 

Отчёт об извлечении

Exact Audio Copy V0.99 prebeta 4 from 23. January 2008

EAC extraction logfile from 18. December 2008, 7:22

Children Of Bodom / Something Wild

Used drive : TSSTcorpCD/DVDW TS-L632D Adapter: 1 ID: 0

Read mode : Secure Utilize accurate stream : Yes Defeat audio cache : Yes Make use of C2 pointers : No

Read offset correction : 6 Overread into Lead-In and Lead-Out : No Fill up missing offset samples with silence : Yes Delete leading and trailing silent blocks : No Null samples used in CRC calculations : Yes Used interface : Native Win32 interface for Win NT & 2000

Used output format : Internal WAV Routines Sample format : 44.100 Hz; 16 Bit; Stereo

TOC of the extracted CD

Track | Start | Length | Start sector | End sector ——————————————————— 1 | 0:00.00 | 3:21.55 | 0 | 15129 2 | 3:21.55 | 6:01.37 | 15130 | 42241 3 | 9:23.17 | 4:28.28 | 42242 | 62369 4 | 13:51.45 | 3:50.15 | 62370 | 79634 5 | 17:41.60 | 4:01.60 | 79635 | 97769 6 | 21:43.45 | 6:17.52 | 97770 | 126096 7 | 28:01.22 | 7:46.65 | 126097 | 161111 8 | 35:48.12 | 0:10.13 | 161112 | 161874

Range status and errors

Selected range

Filename C:\COB — Something Wild\Children Of Bodom — Something Wild.wav

Peak level 98.4 % Range quality 100.0 % Copy CRC 226CFCFD Copy OK

No errors occurred

End of status report

 

[свернуть]

Пароль на архив: Rock Library

Комментирование и размещение ссылок запрещено.

Комментарии закрыты.